Görüntüleme Tercihi Konu Görünümü | Tam Görünüm
[MV] Girls Generation - Party (Melon HD 1080p)


clock07-07-2015, 08:19 PM
Yorum: #1
[Resim: 25u19ic.jpg]

Kod:
Format                      : MPEG-4
Format profile              : Base Media / Version 2
Codec ID                    : mp42
File size                   : 262 MiB
Duration                    : 3mn 37s
Overall bit rate mode       : Variable
Overall bit rate            : 10.1 Mbps
Writing application         : TMPGEnc Video Mastering Works 5 Version. 5.4.0.100

Video
ID                          : 2
Format                      : AVC
Format/Info                 : Advanced Video Codec
Format profile              : [email protected]
Format settings, CABAC      : No
Format settings, ReFrames   : 4 frames
Codec ID                    : avc1
Codec ID/Info               : Advanced Video Coding
Duration                    : 3mn 37s
Bit rate mode               : Constant
Bit rate                    : 10 000 Kbps / 10 000 Kbps
Width                       : 1 920 pixels
Height                      : 1 080 pixels
Display aspect ratio        : 16:9
Frame rate mode             : Constant
Frame rate                  : 23.976 fps
Standard                    : Component
Color space                 : YUV
Chroma subsampling          : 4:2:0
Bit depth                   : 8 bits
Scan type                   : Progressive
Bits/(Pixel*Frame)          : 0.201
Stream size                 : 254 MiB (97%)
Writing library             : x264 core 125
Encoding settings           : cabac=0 / ref=4 / deblock=1:0:0 / analyse=0x1:0x111 / me=hex / subme=7 / psy=1 / psy_rd=1.00:0.00 / mixed_ref=1 / me_range=16 / chroma_me=1 / trellis=1 / 8x8dct=0 / cqm=0 / deadzone=21,11 / fast_pskip=1 / chroma_qp_offset=-2 / threads=6 / lookahead_threads=1 / sliced_threads=0 / slices=1 / nr=0 / decimate=1 / interlaced=0 / bluray_compat=0 / constrained_intra=0 / bframes=0 / weightp=0 / keyint=300 / keyint_min=23 / scenecut=40 / intra_refresh=0 / rc_lookahead=40 / rc=cbr / mbtree=1 / bitrate=10000 / ratetol=1.0 / qcomp=0.60 / qpmin=0 / qpmax=69 / qpstep=4 / vbv_maxrate=10000 / vbv_bufsize=10000 / nal_hrd=cbr / ip_ratio=1.40 / aq=1:1.00
Color range                 : Limited
Color primaries             : BT.709
Transfer characteristics    : BT.709
Matrix coefficients         : BT.709

Audio
ID                          : 1
Format                      : AAC
Format/Info                 : Advanced Audio Codec
Format profile              : LC
Codec ID                    : 40
Duration                    : 3mn 37s
Bit rate mode               : Variable
Bit rate                    : 317 Kbps
Maximum bit rate            : 576 Kbps
Channel(s)                  : 2 channels
Channel positions           : Front: L R
Sampling rate               : 48.0 KHz
Compression mode            : Lossy
Stream size                 : 8.22 MiB (3%)


[Resim: 2dvll6r.jpg]




[-]
Hızlı Cevap
Konu




İfadeler
:) :s :huh:
;) :cool: :D
:P :angel: =[]
=# :{} :(
[Daha fazla göster]




Yararlı linkler: KT Kuralları, Kore, Kore Dizileri, izle
Site içerik sağlayıcı: Koreanturk.com (Official)